Как рендерить видео в sony vegas 11

Core i7 2600K (4 GHz), GA-Z68XP-UD3P, IceHammer Hybrid, 16Gb DDR-III 1600 MHz, 250 Gb SSD, 6,6 ТB HDD’s, GF 560 2Gb, 2xDELL U2211H, Win 7 pro x64.

Уроки монтажа | Как рендерить видео в Sony Vegas Pro 11

Canon 60D, Canon 5DMII, Tamron 24-75 1/2,8, Sigma 17-55 1/2.8 EX DC OS HSM, Canon 50-250 1/4 IS USM, Zenitar 16, Samyang 8 mm 1/3,5 fish-eye, Sony AX2000, Sony 2100, GoPro HD Hero 2, Stabicam D-550, Flycam 5500, Dolly, etc.

Да, качество ухудшится, но единственный вариант бросить как можно поближе к оригиналу — рендерить в какой-нить монтажный формат, типа mxf HD422. Но это очевидный моветон для просмотра.

Выбираю AVCHD 1920×1080 50P битрейт выставляю по максимуму 25999360бит/сек.

Но в конечном итоге средний битрейт вегас разрезает до 16Мбит/с. (. ) при всем этом размер приобретенного файла ни чуть ли не меньше, а время от времени и больше исходника.

Complete name : E:\STREAM\00002.MTS.

Duration : 21s 864ms.

Overall bit rate : 25.9 Mbps.

Maximum Overall bit rate : 28.0 Mbps.

Format/Info : Advanced Video Codec.

Format profile : High@L4.2.

Format settings, CABAC : Yes.

Format settings, ReFrames : 2 frames.

Format settings, GOP : M=1, N=12.

Bit rate : 24.4 Mbps.

Height : 1 080 pixels.

Color space : YUV.

Chroma subsampling : 4:2:0.

Scan type : Progressive.

Stream size : 61.4 MiB (91%)

Format/Info : Audio Coding 3.

Bit rate : 448 Kbps.

Channel(s) : 6 channels.

Channel positions : Front: L C R, Side: L R, LFE.

Bit depth : 16 bits.

Compression mode : Lossy.

Stream size : 1.13 MiB (2%)

ID : 4608 (0x1200)

Duration : 20s 575ms.

Complete name : E:\STREAM\Untitled.m2ts.

Format/Info : Blu-ray Video.

File size : 67.4 MiB.

Duration : 36s 375ms.

Overall bit rate mode : Variable.

Overall bit rate : 15.5 Mbps.

Maximum Overall bit rate : 18.0 Mbps.

ID : 4113 (0x1011)

Duration : 21s 120ms.

Bit rate mode : Variable.

Bit rate : 14.7 Mbps.

Maximum bit rate : 26.0 Mbps.

Width : 1 920 pixels.

Display aspect ratio : 16:9.

Frame rate : 50.000 fps.

Bit depth : 8 bits.

Stream size : 37.0 MiB (55%)

ID : 4352 (0x1100)

Mode extension : CM (complete main)

Format settings, Endianness : Big.

Duration : 21s 88ms.

Bit rate mode : Constant.

Bit rate : 192 Kbps.

Channel(s) : 2 channels.

Channel positions : Front: L R.

Sampling rate : 48.0 KHz.

Delay relative to video : -20ms.

Stream size : 494 KiB (1%)

Т.е. все битрэйты свалились а размер нет. Как так?

Для сложных кодеков сжатия приятный метод дает больше представления.

Если размер видеопотока уменьшился практически в два раза, то и средний битрейт должен быть значительно меньше. Общий размер файла никогда не будет точно равен сумме размеров потоков, потому что должен обеспечить сопоставимость с AVCHD спецификацией (подробнее)

а у приобретенного файла 22/25/29мбит.

CPU Intel Core i7-2600K 3.4 ГГц\4core\ 8Гб ОЗУ Самсунг DDR-III\ 2ГБ GeForce GTX660Ti\ MB ASUS P8Z77-V LK (RTL) LGA1155\ 2ТБ Western Digital320 Western Digital HDD 2-ой компьютер с 1ТБ HDD для хранения хлама всякого.

Win 7-64бит, vegas 12,10. В\камера Canon XA 10 FHD.

35 Мбит/с и SD видеоформаты с еще больше низким битрейтом.

Статистической оценкой личной заметности реликвий при различных характеристик шифровки занимается организации по разработки и стандартизации видеокодеков, обычному производителью видеоматериалов это не по кармашку.

Снял видео на Nikon, 1080/50р. MOV. Средний битрейд 37 Mb.

И вот сейчас ищу как его отрендерить в Вегасе 13, чтоб было 50р и чтоб битрейт сохранить!

Таки не нашёл ещё метод!

В m2ts — не выводит битрейт выше 18 Mb, как ни ухитряйся.

Тезисы

How to render in Sony Vegas Pro correctly. Автор: HanDi. Как правильно рендерить видео в Sony Vegas Pro Автор: САШКО TIMES. как правильно рендерить видео в sony vegas pro 11, Видео Как правильно рендерить видео в Sony Vegas Pro для Ютуба Как правильно рендерить видео в Sony vegas Как правильно рендерить видео в Sony vegas Всем привет! В этом видео я покажу и расскажу как правильно рендарить видео в Sony Vegas Pro 11,12,13 Сохранение готового видео в Sony Vegas. we-it. net готового видео в Sony Vegas: 1. на вегасе 11 про видео длится как сохранить видео в сони Как рендерить видео 60fps в Sony Vegas Pro 11…. ПОДПИСАТЬСЯ НА КАНАЛ. http://goo. gl/tt2hBf Дружище, подпишись на канал, если тебе не трудно. Если Как рендерить в sony vegas Как сохранить видео в Sony Vegas. Как правильно рендерить видео в Сони Вегас. Какой формат Урок 7. Как сохранить качество видео при выгрузке ВидеоВегас. уроки видеомонтажа в Sony Vegas, создание видео. с видео: как 11 Сентябрь Как рендерить видео в Sony Vegas? Довольно часто у пользователей возникает вопрос: "Как в Sony Vegas сохранять видео? В данной Рендер в Vegas Pro или как сохранить проект в Не подскажите почему может не рендерить в Создал видео в Sony Vegas Pro 11 как мне в Sony Vegas.

Похожие видеообзоры